<?xml version="1.0" standalone="no"?>
<!DOCTYPE svg PUBLIC "-//W3C//DTD SVG 1.1//EN" "http://www.w3.org/Graphics/SVG/1.1/DTD/svg11.dtd">
<svg xmlns="http://www.w3.org/2000/svg">
<defs >
<font id="InknutAntiqua" horiz-adv-x="791" ><font-face
    font-family="Inknut Antiqua"
    units-per-em="1000"
    panose-1="0 0 5 0 0 0 0 0 0 0"
    ascent="1703"
    descent="-876"
    alphabetic="0" />
<glyph unicode=" " glyph-name="space" horiz-adv-x="279" />
<glyph unicode="!" glyph-name="exclam" horiz-adv-x="349" d="M141 243L80 705V736L216 786H254L201 243H141ZM211 155T230 133T250 78Q250 55 236 35T201 2T160 -10Q130 -10 111 12T91 67Q91 90 105 110T140 143T181 155Q211 155 230 133Z" />
<glyph unicode="&quot;" glyph-name="quotedbl" horiz-adv-x="490" d="M130 434L60 711V742L172 786H210L176 435L130 434ZM350 434L280 711V742L392 786H430L396 435L350 434Z" />
<glyph unicode="#" glyph-name="numbersign" horiz-adv-x="780" d="M472 184H632L606 139H446L360 -10L324 11L398 139H238L152 -10L116 11L190 139H30L56 184H216L308 344H148L174 389H334L422 541L458 520L382 389H542L630 541L666 520L590 389H750L724 344H564L472
184ZM355 344L263 184H423L515 344H355Z" />
<glyph unicode="$" glyph-name="dollar" horiz-adv-x="700" d="M631 174T589 119T484 23T368 -20V-199H313V-18Q249 -13 179 0T76 27V221H114Q155 155 206 113T313 56V342Q237 381 191 410T113 477T81 563Q81 609 117 662T207 755T313 804V986H368V805Q430 801
499 788T601 759V565H563Q521 635 471 678T367 733V457L399 441Q474 403 520 375T598 308T630 223H631Q631 174 589 119ZM209 574T236 545T313 486V734Q264 728 237 694T209 608Q209 574 236 545ZM409 50T439 68T486 115T503 177Q503 214 468 245T368 312V49Q409
50 439 68Z" />
<glyph unicode="%" glyph-name="percent" horiz-adv-x="1077" d="M641 883T690 857T767 787T795 688Q795 630 753 580T646 499T522 469Q460 469 411 494T334 564T306 664Q306 722 348 772T455 853T579 883Q641 883 690 857ZM410 814T410 697Q410 629 450 584T568
538Q691 538 691 655Q691 723 650 768T532 814Q410 814 410 697ZM160 -132L126 -107L941 937L977 912L160 -132ZM873 298T922 272T999 202T1027 103Q1027 45 985 -5T878 -86T754 -116Q692 -116 643 -91T566 -21T538 79Q538 137 580 187T687 268T811 298Q873 298
922 272ZM642 229T642 112Q642 44 682 -1T800 -47Q923 -47 923 70Q923 138 882 183T764 229Q642 229 642 112Z" />
<glyph unicode="&amp;" glyph-name="ampersand" horiz-adv-x="1255" d="M1035 74T1140 156L1170 118L1016 -3Q976 -11 920 -11Q863 -11 818 13T746 77T720 167Q720 200 731 233L434 -2Q389 -10 321 -10Q249 -10 192 26T103 127T71 268Q71 351 121 423T246 538T392
581Q440 581 478 546T528 470Q571 519 625 550T729 581Q768 581 798 571T868 540Q911 519 941 509T1012 498Q1036 498 1061 509T1104 541T1122 586Q1122 623 1084 657T978 718V749L1094 792Q1125 761 1158 705T1192 609Q1192 560 1152 508T1058 420T968 384Q939
384 914 387Q880 363 865 323T849 216Q849 154 882 115T977 75L978 74Q1035 74 1140 156ZM416 74T460 92T569 163L867 397Q835 406 778 431Q738 448 712 456T656 465Q623 465 593 454T528 411Q518 368 484 330T404 259T278 177L257 217Q338 267 367 313T396 411Q396
446 374 471T324 496Q264 496 233 450T201 315Q201 212 247 143T379 74Q416 74 460 92Z" />
<glyph unicode="&apos;" glyph-name="quotesingle" horiz-adv-x="270" d="M130 434L60 711V742L172 786H210L176 435L130 434Z" />
<glyph unicode="(" glyph-name="parenleft" horiz-adv-x="517" d="M337 826T271 703T205 403Q205 222 267 69T456 -171L429 -210Q321 -169 240 -89T115 105T70 355Q70 709 433 953L457 914Q337 826 271 703Z" />
<glyph unicode=")" glyph-name="parenright" horiz-adv-x="517" d="M180 -83T246 40T312 340Q312 521 250 674T61 914L88 953Q196 912 277 832T402 638T447 388Q447 34 84 -210L60 -171Q180 -83 246 40Z" />
<glyph unicode="*" glyph-name="asterisk" horiz-adv-x="698" d="M352 548L369 719L489 813L557 688L542 661L465 705L369 538L352 548ZM348 549L331 539L191 639L170 790L312 787L328 760L252 716L348 549ZM30 503L104 624H135V536H328V516L171 445L30 503ZM594
426H563V514H370V534L527 605L668 548L594 426ZM346 503L329 331L209 238L141 362L156 389L232 345L329 512L346 503ZM528 260L386 263L370 290L447 335L350 501L367 511L507 411L528 260Z" />
<glyph unicode="+" glyph-name="plus" horiz-adv-x="528" d="M284 288V85H243V288H40V329H243V532H284V329H487V288H284Z" />
<glyph unicode="," glyph-name="comma" horiz-adv-x="370" d="M88 -265L50 -235Q101 -174 123 -130T149 -30L71 16V47L242 131L280 -21L88 -265Z" />
<glyph unicode="-" glyph-name="hyphen" horiz-adv-x="513" d="M80 298L120 349H433V319L393 268H80V298Z" />
<glyph unicode="." glyph-name="period" horiz-adv-x="339" d="M210 155T229 133T249 78Q249 55 235 35T200 2T159 -10Q129 -10 110 12T90 67Q90 90 104 110T139 143T180 155Q210 155 229 133Z" />
<glyph unicode="/" glyph-name="slash" horiz-adv-x="355" d="M71 -140L20 -130L283 943L335 933L71 -140Z" />
<glyph unicode="0" glyph-name="zero" horiz-adv-x="751" d="M489 581T550 544T646 444T681 303Q681 220 628 148T495 33T340 -10Q263 -10 201 26T105 127T70 268Q70 351 123 423T256 538T411 581Q489 581 550 544ZM200 497T200 316Q200 250 222 195T288 107T398
74Q551 74 551 256Q551 322 529 377T463 464T353 497Q200 497 200 316Z" />
<glyph unicode="1" glyph-name="one" horiz-adv-x="494" d="M394 0H90V31L187 107V495L80 531L100 571H404V540L307 464V76L414 40L394 0Z" />
<glyph unicode="2" glyph-name="two" horiz-adv-x="590" d="M538 -18L483 0H44V31Q171 137 237 200T330 303T356 377Q356 429 320 462T227 496Q165 496 75 421L45 459L189 573Q215 581 255 581Q324 581 376 563T457 511T486 434Q486 337 229 121H476L508 202L538
192V-18Z" />
<glyph unicode="3" glyph-name="three" horiz-adv-x="560" d="M424 207T457 169T490 84Q490 -22 386 -105T53 -264L38 -216Q169 -168 237 -132T332 -57T360 37Q360 65 349 86T309 131T226 189V214Q281 280 299 312T318 377Q318 429 288 462T209 496Q149 496 57
421L27 459L171 573Q192 581 213 581Q276 581 330 561T416 508T448 434Q445 398 421 359T339 261Q424 207 457 169Z" />
<glyph unicode="4" glyph-name="four" horiz-adv-x="698" d="M520 61V-155L400 -214V61H30V92L400 541L520 600V132H673L638 61H520ZM400 443L150 132H400V443Z" />
<glyph unicode="5" glyph-name="five" horiz-adv-x="626" d="M282 303T361 256T470 169T501 84Q501 -5 438 -70T283 -179T64 -264L49 -216Q186 -166 254 -128T347 -53T371 37Q371 78 349 109T262 179T71 273L135 571H426L458 652L488 642V432L433 450H150L133
368H134Q282 303 361 256Z" />
<glyph unicode="6" glyph-name="six" horiz-adv-x="731" d="M392 713T306 592T220 345Q220 271 241 210T304 111T408 74Q531 74 531 236Q531 327 473 390T322 484L353 529Q440 529 510 497T621 409T661 283Q661 213 616 145T498 33T350 -10Q275 -10 216 30T123
141T90 298Q90 410 129 503T272 691T561 883L585 842Q392 713 306 592Z" />
<glyph unicode="7" glyph-name="seven" horiz-adv-x="658" d="M598 533L197 -264L149 -242L500 450H130L100 379L70 389V589L125 571H598V533Z" />
<glyph unicode="8" glyph-name="eight" horiz-adv-x="732" d="M525 447T566 416T635 344T663 253Q663 199 618 137T509 32T391 -11Q299 -11 226 20T112 106T71 227Q71 277 114 327T260 455Q196 499 160 545T124 648Q124 696 166 751T268 844T380 882Q445 882 496
858T576 792T605 701Q601 657 571 610T460 485L461 484Q525 447 566 416ZM312 813T282 780T252 695Q252 642 294 601T417 511Q461 565 473 592T485 654Q485 722 449 767T356 812V813Q312 813 282 780ZM436 60T468 80T517 135T534 208Q534 246 509 279T445 339T343
404L302 429Q240 377 221 346T201 276Q201 220 228 170T300 90T396 60H395Q436 60 468 80Z" />
<glyph unicode="9" glyph-name="nine" horiz-adv-x="731" d="M456 581T515 544T608 444T641 303Q641 194 602 103T459 -79T170 -264L146 -223Q339 -98 425 18T511 256Q511 322 490 377T427 464T323 497Q200 497 200 335Q200 244 255 181T399 87L368 42Q284 42
216 74T109 162T70 288Q70 358 115 426T233 538T381 581Q456 581 515 544Z" />
<glyph unicode=":" glyph-name="colon" horiz-adv-x="339" d="M210 541T229 519T249 464Q249 441 235 421T200 388T159 376Q129 376 110 398T90 453Q90 476 104 496T139 529T180 541Q210 541 229 519ZM210 155T229 133T249 78Q249 55 235 35T200 2T159 -10Q129
-10 110 12T90 67Q90 90 104 110T139 143T180 155Q210 155 229 133Z" />
<glyph unicode=";" glyph-name="semicolon" horiz-adv-x="370" d="M88 -265L50 -235Q101 -174 123 -130T149 -30L71 16V47L242 131L280 -21L88 -265ZM210 541T229 519T249 464Q249 441 235 421T200 388T159 376Q129 376 110 398T90 453Q90 476 104 496T139 529T180
541Q210 541 229 519Z" />
<glyph unicode="&lt;" glyph-name="less" horiz-adv-x="471" d="M328 84L30 309L394 555L426 524L165 348L441 140L328 84Z" />
<glyph unicode="=" glyph-name="equal" horiz-adv-x="527" d="M40 419H487V378H40V419ZM40 495H487V454H40V495Z" />
<glyph unicode="&gt;" glyph-name="greater" horiz-adv-x="471" d="M77 63L45 94L306 270L30 478L143 534L441 309L77 63Z" />
<glyph unicode="?" glyph-name="question" horiz-adv-x="484" d="M242 806T292 781T378 716T414 638Q414 602 387 573T306 503Q269 476 252 459T234 426Q234 388 276 349V318L171 266Q121 316 121 370Q121 404 148 433T226 500Q264 528 282 546T301 582Q301 607
278 640T219 697T147 721Q106 721 40 683L10 721L109 798Q149 806 205 806Q242 806 292 781ZM241 155T260 133T280 78Q280 55 266 35T231 2T190 -10Q160 -10 141 12T121 67Q121 90 135 110T170 143T211 155Q241 155 260 133Z" />
<glyph unicode="@" glyph-name="at" horiz-adv-x="1339" d="M892 814T1013 756T1202 593T1269 358Q1269 265 1216 186T1080 58T909 -2H789V70L696 -4Q664 -12 619 -12Q553 -12 501 22T419 116T389 246Q389 323 436 390T553 498T690 539Q767 539 821 480L871 550H909V54Q1024
79 1081 145T1139 313Q1139 428 1089 523T935 675T677 732Q540 732 431 676T261 520T200 293Q200 164 246 54T390 -130T631 -224L611 -264Q435 -265 314 -202T131 -23T70 245Q70 407 173 538T432 742T735 816V814Q892 814 1013 756ZM700 73T727 81T789 114V342Q783
392 743 423T632 455Q519 455 519 294Q519 200 558 137T670 73Q700 73 727 81Z" />
<glyph unicode="A" glyph-name="A" horiz-adv-x="870" d="M850 0H546V31L640 104L563 289H227L145 100L321 40L301 0H-3V31L91 105L374 754L478 805L770 101L870 40L850 0ZM399 685L247 334H545L399 685Z" />
<glyph unicode="B" glyph-name="B" horiz-adv-x="789" d="M641 401T685 349T729 229Q729 166 679 111T553 22T409 -11Q359 -11 311 -6Q231 -1 187 -1H60V30L154 104V712L50 746L70 786H186Q277 786 365 792Q433 796 465 796Q532 796 583 770T661 700T689 600Q689
550 655 505T564 425V423Q641 401 685 349ZM554 629T512 679T387 729Q327 729 279 695V430H422Q484 430 519 461T554 551V550Q554 629 512 679ZM509 62T551 98T594 195Q594 273 549 321T413 372Q406 371 394 371H279V88Q346 61 437 61V62Q509 62 551 98Z" />
<glyph unicode="C" glyph-name="C" horiz-adv-x="820" d="M553 806T622 791T724 759V565H686Q594 722 442 722Q376 722 322 684T236 577T205 423Q205 325 235 244T328 114T483 65Q568 65 727 193L757 145L573 2Q536 -11 502 -15T427 -20Q322 -20 241 31T115 171T70
375Q70 492 138 591T307 748T500 806Q553 806 622 791Z" />
<glyph unicode="D" glyph-name="D" horiz-adv-x="889" d="M573 795T652 746T775 608T819 409Q819 295 753 199T588 46T399 -11Q353 -11 306 -6Q229 -1 187 -1H60V30L154 104V712L50 746L70 786H186Q281 786 371 792Q439 796 470 796V795Q573 795 652 746ZM499
63T558 101T650 208T684 362Q684 464 652 547T555 681T392 731Q331 731 279 695V88Q340 63 427 63Q499 63 558 101Z" />
<glyph unicode="E" glyph-name="E" horiz-adv-x="814" d="M660 0H60V31L154 105V711L50 746L70 786H650L704 804V574L674 564L555 741H279V424H436L509 552H540V248L500 228L437 379H279V45H551L684 242L714 232V-18L660 0Z" />
<glyph unicode="F" glyph-name="F" horiz-adv-x="774" d="M705 574L675 564L556 741H280V424H437L510 552H541V278L501 258L440 379H279V83L434 40L414 0H60V31L154 105V711L50 746L70 786H650L705 804V574Z" />
<glyph unicode="G" glyph-name="G" horiz-adv-x="910" d="M770 158L797 115L613 2Q571 -11 532 -15T447 -20Q336 -20 251 31T118 171T70 375Q70 492 141 591T318 748T520 806Q577 806 653 791T764 759V565H726Q626 722 462 722Q390 722 331 684T239 577T205 423Q205
325 237 244T337 114T503 65Q547 65 576 68T645 87V323L491 366L511 406H865V375L770 300V158Z" />
<glyph unicode="H" glyph-name="H" horiz-adv-x="954" d="M884 0H580V31L674 105V369H279V76L384 40L364 0H60V31L154 105V711L50 746L70 786H374V755L279 681V414H674V711L570 746L590 786H894V755L799 681V76L904 40L884 0Z" />
<glyph unicode="I" glyph-name="I" horiz-adv-x="434" d="M364 0H60V31L154 105V711L50 746L70 786H374V755L279 681V76L384 40L364 0Z" />
<glyph unicode="J" glyph-name="J" horiz-adv-x="424" d="M279 99Q279 59 281 26T288 -20L96 -264L58 -234Q115 -162 134 -112T154 11V707L30 746L50 786H374V755L279 681V99Z" />
<glyph unicode="K" glyph-name="K" horiz-adv-x="860" d="M384 40L364 0H60V31L154 105V711L50 746L70 786H374V755L279 681V76L384 40ZM827 0H646L336 394L643 662L527 746L547 786H816V755L456 441L731 97L847 40L827 0Z" />
<glyph unicode="L" glyph-name="L" horiz-adv-x="784" d="M660 0H60V31L154 105V711L50 746L70 786H374V755L279 681V45H537L684 262L714 252V-18L660 0Z" />
<glyph unicode="M" glyph-name="M" horiz-adv-x="1076" d="M1006 -1H702V30L796 104V657L529 -1H474L209 664V92L314 39L294 -1H60V30L154 104V690L50 746L70 786H287L537 158L786 786H1016V755L921 681V76L1026 39L1006 -1Z" />
<glyph unicode="N" glyph-name="N" horiz-adv-x="874" d="M739 680V-1H684L209 600V92L314 39L294 -1H60V30L154 104V690L50 746L70 786H221L684 200V694L580 746L600 786H834V754L739 680Z" />
<glyph unicode="O" glyph-name="O" horiz-adv-x="929" d="M606 806T687 755T814 614T859 410Q859 293 791 194T622 38T429 -20Q323 -20 242 30T115 171T70 375Q70 492 138 591T307 748T500 806Q606 806 687 755ZM376 722T322 684T236 577T205 423Q205 325 236
244T330 113T487 64Q553 64 607 102T693 209T724 363Q724 462 693 543T599 673T442 722Q376 722 322 684Z" />
<glyph unicode="P" glyph-name="P" horiz-adv-x="779" d="M506 383T545 420T585 522Q585 614 539 672T403 731Q335 731 279 692V82L434 39L414 -1H60V30L154 104V712L50 746L70 786H186Q283 786 377 792Q447 796 480 796Q550 796 604 767T689 685T719 570Q719
500 668 438T538 341T383 310L336 344L356 384H437L438 383Q506 383 545 420Z" />
<glyph unicode="Q" glyph-name="Q" horiz-adv-x="929" d="M903 -264T844 -264Q807 -264 731 -186T557 6Q490 -20 429 -20Q323 -20 242 30T115 171T70 375Q70 492 138 591T307 748T500 806Q606 806 687 755T814 614T859 410Q859 295 793 197T626 40Q720 -31 802
-88T903 -145H1038L1059 -190Q903 -264 844 -264ZM206 325T237 244T331 113T488 64Q554 64 608 102T694 209T725 363Q725 462 694 543T600 673T443 722Q377 722 323 684T237 577T206 423Q206 325 237 244Z" />
<glyph unicode="R" glyph-name="R" horiz-adv-x="809" d="M790 -2H604L384 353L337 387L352 417H408Q476 417 515 451T555 546Q555 625 511 677T383 730Q327 730 280 697V74L385 38L365 -2H61V29L155 103V711L51 745L71 785H187Q278 785 366 791Q430 795 461 795Q528
795 580 768T661 695T690 594Q690 544 659 499T578 420T471 369L536 347L691 97L810 38L790 -2Z" />
<glyph unicode="S" glyph-name="S" horiz-adv-x="700" d="M502 208T477 235T415 284T313 340Q237 380 191 408T113 476T80 562Q80 612 122 669T224 766T336 806Q398 806 480 791T600 759V565H562Q513 646 455 691T332 736Q275 736 242 701T208 608Q208 575 233
547T296 496T401 439Q475 402 521 374T598 308T630 223Q630 173 585 116T476 19T358 -21Q293 -21 204 -6T75 26V220H113Q164 139 229 94T363 49Q404 49 436 67T485 114T502 177Q502 208 477 235Z" />
<glyph unicode="T" glyph-name="T" horiz-adv-x="832" d="M762 554L732 544L599 741H477V76L582 40L562 0H258V31L352 105V741H233L100 544L70 554V804L124 786H708L762 804V554Z" />
<glyph unicode="U" glyph-name="U" horiz-adv-x="898" d="M773 681V310Q773 205 723 130T598 18T453 -20Q364 -20 294 19T184 128T144 285V711L40 746L60 786H364V755L269 681V333Q269 206 331 135T521 64Q568 64 613 94T688 184T718 323V694L614 746L634 786H868V755L773
681Z" />
<glyph unicode="V" glyph-name="V" horiz-adv-x="873" d="M779 681L496 32L392 -19L100 685L0 746L20 786H324V755L230 682L471 101L725 686L549 746L569 786H873V755L779 681Z" />
<glyph unicode="W" glyph-name="W" horiz-adv-x="1195" d="M1108 687L868 32L764 -19L605 452L456 32L352 -19L95 689L0 746L20 786H294V755L221 700L429 114L578 530L524 690L432 746L452 786H746V755L657 686L843 116L1049 686L871 746L891 786H1195V755L1108 687Z" />
<glyph unicode="X" glyph-name="X" horiz-adv-x="873" d="M822 0H518V31L597 92L407 332L199 97L344 40L324 0H20V31L131 99L376 372L131 685L30 746L50 786H354V755L275 694L464 456L655 688L509 746L529 786H833V755L730 692L497 415L742 101L842 40L822 0Z" />
<glyph unicode="Y" glyph-name="Y" horiz-adv-x="803" d="M461 76L566 40L546 0H242V31L336 105V283L79 698L0 746L20 786H324V755L231 683L431 358L639 683L479 746L499 786H803V755L721 705L461 298V76Z" />
<glyph unicode="Z" glyph-name="Z" horiz-adv-x="790" d="M536 45L676 252L706 242V-18L652 0H69V45L570 741H256L130 554L100 564V804L154 786H716V741L215 45H536Z" />
<glyph unicode="[" glyph-name="bracketleft" horiz-adv-x="435" d="M240 -165H385V-210H120V954H385V909H240V-165Z" />
<glyph unicode="\" glyph-name="backslash" horiz-adv-x="355" d="M284 -140L335 -130L72 943L20 933L284 -140Z" />
<glyph unicode="]" glyph-name="bracketright" horiz-adv-x="435" d="M195 909H50V954H315V-210H50V-165H195V909Z" />
<glyph unicode="^" glyph-name="asciicircum" horiz-adv-x="597" d="M547 283H435L272 613L94 283H50V314L244 674L348 725L547 323V283Z" />
<glyph unicode="_" glyph-name="underscore" horiz-adv-x="498" d="M40 -93H458V-134H40V-93Z" />
<glyph unicode="`" glyph-name="grave" horiz-adv-x="380" d="M280 676L60 849L79 873L213 892L320 696L280 676Z" />
<glyph unicode="a" glyph-name="a" horiz-adv-x="621" d="M576 0H386V87L273 -2Q253 -10 223 -10Q137 -10 99 33T60 136Q60 172 86 207T160 273H386V337Q386 402 352 429T257 456Q195 456 105 381L75 419L219 533Q259 541 315 541Q406 541 456 497T506 367V75L596
40L576 0ZM316 75T386 131V232H209Q196 216 191 200T185 165Q185 128 204 102T255 75Q316 75 386 131Z" />
<glyph unicode="b" glyph-name="b" horiz-adv-x="705" d="M499 541T542 507T610 413T635 283Q635 206 588 139T471 31T334 -10Q293 -10 258 8T195 59L152 0H114V716L25 778V809L196 873H234V427L368 533Q400 541 445 541Q499 541 542 507ZM505 74T505 235Q505
328 476 392T394 456Q356 456 320 441T234 382V203Q234 148 275 111T392 74Q505 74 505 235Z" />
<glyph unicode="c" glyph-name="c" horiz-adv-x="613" d="M392 541T446 530T525 504V350H487Q448 400 398 428T293 457Q247 457 224 416T200 296Q200 202 241 139T358 75Q415 75 520 157L550 119L396 -2Q356 -10 300 -10Q234 -10 182 24T100 118T70 248Q70 325
113 393T223 501T351 541Q392 541 446 530Z" />
<glyph unicode="d" glyph-name="d" horiz-adv-x="705" d="M659 0H469V72L376 -2Q344 -10 299 -10Q233 -10 181 24T99 118T69 248Q69 325 116 392T233 500T370 541Q425 541 470 510V716L381 778V809L552 873H590V75L679 40L659 0ZM380 75T407 83T469 116V344Q463
394 423 425T312 457Q199 457 199 296Q199 202 238 139T350 75Q380 75 407 83Z" />
<glyph unicode="e" glyph-name="e" horiz-adv-x="643" d="M396 -2Q356 -10 300 -10Q234 -10 182 24T100 118T70 248Q70 325 117 392T234 500T371 541Q466 541 518 466T571 268H201Q207 183 247 129T358 75Q423 75 543 176L573 138L396 -2ZM205 457T200 309H434Q425
363 416 391T383 438T313 457Q205 457 200 309Z" />
<glyph unicode="f" glyph-name="f" horiz-adv-x="439" d="M443 883T478 878T529 866V712H491Q466 752 430 775T357 799Q311 799 288 758T264 638V501H444V460H264V83L404 40L384 0H55V31L144 101V460H25V501H144V590Q144 667 186 735T291 843T415 883Q443 883 478 878Z" />
<glyph unicode="g" glyph-name="g" horiz-adv-x="640" d="M493 462Q521 422 521 372Q521 328 496 286T429 211T337 163Q310 136 310 106Q310 89 336 75T415 40Q486 12 524 -11T563 -69Q563 -99 525 -146T429 -228T319 -263Q263 -263 187 -244T59 -206V-52H97Q153
-121 211 -157T342 -193Q369 -193 391 -182T426 -155T439 -123Q439 -96 408 -77T311 -29Q248 -3 218 16T187 60Q187 84 219 109T295 153Q279 150 262 150Q209 150 165 173T96 236T70 321Q70 376 108 427T206 509T330 541Q400 541 453 501H610L611 462H493ZM365
236T388 258T412 325Q412 385 374 422T272 459Q228 459 205 438T181 372Q181 311 219 274T320 236Q365 236 388 258Z" />
<glyph unicode="h" glyph-name="h" horiz-adv-x="699" d="M654 0H464V337Q464 392 447 414T386 436Q353 436 321 424T244 378V75L334 40L314 0H35V31L124 101V716L35 778V809L206 873H244V425L381 533Q402 541 436 541Q504 541 544 500T584 387V75L674 40L654 0Z" />
<glyph unicode="i" glyph-name="i" horiz-adv-x="389" d="M334 0H55V31L144 101V393L55 455V486L226 550H264V75L354 40L334 0ZM230 850T249 828T269 773Q269 750 255 730T220 697T179 685Q149 685 130 707T110 762Q110 785 124 805T159 838T200 850Q230 850 249 828Z" />
<glyph unicode="j" glyph-name="j" horiz-adv-x="379" d="M264 59T266 26T273 -20L81 -264L43 -234Q103 -163 123 -113T144 11V393L55 455V486L226 550H264V99Q264 59 266 26ZM230 850T249 828T269 773Q269 750 255 730T220 697T179 685Q149 685 130 707T110 762Q110
785 124 805T159 838T200 850Q230 850 249 828Z" />
<glyph unicode="k" glyph-name="k" horiz-adv-x="689" d="M334 40L314 0H35V31L124 101V716L35 778V809L206 873H244V75L334 40ZM654 0H485L297 264L484 421L388 491L408 531H647V500L415 305L584 75L674 40L654 0Z" />
<glyph unicode="l" glyph-name="l" horiz-adv-x="369" d="M314 0H35V31L124 101V716L35 778V809L206 873H244V75L334 40L314 0Z" />
<glyph unicode="m" glyph-name="m" horiz-adv-x="1039" d="M995 0H805V337Q805 392 788 414T727 436Q696 436 666 425T595 379V75L685 40L665 0H475V337Q475 392 458 414T397 436Q366 436 336 425T265 379V75L355 40L335 0H56V31L145 101V384L56 436V467L227 551L259
423L392 534Q413 542 447 542Q505 542 543 511T591 424L721 533Q742 541 776 541Q844 541 884 500T924 387V75L1015 40L995 0Z" />
<glyph unicode="n" glyph-name="n" horiz-adv-x="719" d="M674 -1H484V336Q484 391 467 413T406 435Q373 435 341 423T264 377V74L354 39L334 -1H55V30L144 100V383L55 435V466L226 550L259 420L401 533Q422 541 456 541Q524 541 564 500T604 387V75L694 39L674 -1Z" />
<glyph unicode="o" glyph-name="o" horiz-adv-x="671" d="M437 541T489 507T571 413T601 283Q601 206 554 139T437 31T300 -10Q234 -10 182 24T100 118T70 248Q70 325 117 392T234 500T371 541Q437 541 489 507ZM200 457T200 296Q200 201 241 138T358 74Q471 74
471 236Q471 330 430 393T313 457Q200 457 200 296Z" />
<glyph unicode="p" glyph-name="p" horiz-adv-x="735" d="M310 -11T264 22V-172L404 -215L384 -255H55V-224L144 -154V383L55 435V466L226 550L259 420L402 533Q434 541 475 541Q529 541 572 507T640 413T665 283Q665 206 618 139T501 31T364 -10V-11Q310 -11
264 22ZM386 445T350 430T264 371V202Q264 147 305 110T422 73Q535 73 535 234Q535 323 506 384T424 445Q386 445 350 430Z" />
<glyph unicode="q" glyph-name="q" horiz-adv-x="705" d="M660 -255H331V-224L470 -150V71L377 -3Q345 -11 300 -11Q234 -11 182 23T100 117T70 247Q70 324 117 391T234 499T371 540Q448 540 502 481L552 551H590V-179L680 -215L660 -255ZM381 74T408 82T470 115V343Q464
393 424 424T313 456Q200 456 200 295Q200 201 239 138T351 74Q381 74 408 82Z" />
<glyph unicode="r" glyph-name="r" horiz-adv-x="519" d="M449 540T474 522T513 472L447 389H409Q405 414 395 424T366 435Q344 435 320 424T264 380V82L404 39L384 -1H55V30L144 100V383L55 435V466L226 550L257 427L361 533Q382 541 416 541V540Q449 540 474 522Z" />
<glyph unicode="s" glyph-name="s" horiz-adv-x="559" d="M377 136T346 159T251 216Q199 243 167 263T113 309T90 367Q90 403 120 444T194 513T276 541Q322 541 382 530T470 504V350H432Q400 412 358 446T272 481Q241 481 222 465T203 423Q203 392 235 368T334
310Q385 284 416 265T468 221T490 164Q490 127 459 87T382 18T298 -10Q249 -10 182 1T85 27V181H123Q158 119 206 85T303 50Q336 50 356 67T377 108Q377 136 346 159Z" />
<glyph unicode="t" glyph-name="t" horiz-adv-x="456" d="M340 -2Q317 -10 284 -10Q201 -10 163 33T124 168V460H16V501L206 722H244V501H424V460H244V156Q244 75 322 75Q343 75 362 84T411 116L441 78L340 -2Z" />
<glyph unicode="u" glyph-name="u" horiz-adv-x="699" d="M644 0H454V104L327 -2Q306 -10 272 -10Q204 -10 164 31T124 144V383L35 435V466L206 550H244V194Q244 139 261 117T322 95Q353 95 383 106T454 152V383L365 435V466L536 550H574V75L664 40L644 0Z" />
<glyph unicode="v" glyph-name="v" horiz-adv-x="620" d="M583 500L330 0H254L98 381L5 435V466L176 550L214 399L336 101L477 394L344 491L364 531H583V500Z" />
<glyph unicode="w" glyph-name="w" horiz-adv-x="899" d="M863 500L640 0H564L460 255L331 0H255L99 381L6 435V466L177 550L215 399L337 102L435 313L407 381L314 435V466L485 550L523 399L642 110L762 390L623 491L643 531H863V500Z" />
<glyph unicode="x" glyph-name="x" horiz-adv-x="618" d="M582 0H433L276 210L165 106L258 39L238 -1H19V30L248 248L103 436L15 491L35 531H184L339 324L446 424L353 491L373 531H592V500L367 286L513 96L602 40L582 0Z" />
<glyph unicode="y" glyph-name="y" horiz-adv-x="620" d="M583 500L330 0L122 -264L84 -234Q141 -173 170 -127T212 -35T224 76L98 381L5 435V466L176 550L214 399L336 101L477 394L344 491L364 531H583V500Z" />
<glyph unicode="z" glyph-name="z" horiz-adv-x="611" d="M455 120L498 202L528 192V-18L473 0H70V38L406 411H153L113 339L83 349V549L138 531H541V493L207 120H455Z" />
<glyph unicode="{" glyph-name="braceleft" horiz-adv-x="496" d="M345 -142T396 -171L372 -210Q308 -169 267 -102T225 43V171Q225 250 202 291T132 332H40V412H132Q178 412 201 453T225 573V701Q225 778 266 845T372 954L396 915Q345 886 345 764V621Q345 544
304 478T198 372Q262 333 303 267T345 123V-20Q345 -142 396 -171Z" />
<glyph unicode="|" glyph-name="bar" horiz-adv-x="373" d="M214 -200H159V986H214V-200Z" />
<glyph unicode="}" glyph-name="braceright" horiz-adv-x="496" d="M151 886T100 915L124 954Q188 913 229 846T271 701V573Q271 494 294 453T364 412H456V332H364Q318 332 295 291T271 171V43Q271 -34 230 -101T124 -210L100 -171Q151 -142 151 -20V123Q151 200
192 266T298 372Q234 411 193 477T151 621V764Q151 886 100 915Z" />
<glyph unicode="~" glyph-name="asciitilde" horiz-adv-x="615" d="M225 415T255 402T328 361Q370 336 396 324T450 311Q471 311 493 329T535 378L565 340Q540 284 500 244T423 204Q390 204 360 217T287 258Q245 283 219 295T165 308Q144 308 122 290T80 241L50
279Q75 335 115 375T192 415Q225 415 255 402Z" />
<glyph unicode="&#xa0;" glyph-name="uni00A0" horiz-adv-x="279" />
<glyph unicode="&#xa1;" glyph-name="exclamdown" horiz-adv-x="349" d="M223 541T242 519T262 464Q262 441 248 421T213 388T172 376Q142 376 123 398T103 453Q103 476 117 496T152 529T193 541Q223 541 242 519ZM269 -204L133 -254H95L148 289H208L269 -173V-204Z" />
<glyph unicode="&#xa2;" glyph-name="cent" horiz-adv-x="613" d="M373 -8T354 -9V-201H299V-11Q233 -11 181 23T99 117T69 247Q69 314 102 374T189 477T300 533V748H355V540Q397 539 448 528T524 504V350H486Q431 422 355 447V75H358Q415 75 520 157L550 119L394
-3Q373 -8 354 -9ZM199 222T225 165T300 86V456H291Q245 456 222 415T198 295L199 296Q199 222 225 165Z" />
<glyph unicode="&#xa3;" glyph-name="sterling" horiz-adv-x="721" d="M640 -17L585 1H42V39L163 166V351H9L30 392H163V514Q163 591 206 659T316 767T444 807Q485 807 539 796T618 770V616H580Q541 666 491 694T386 723Q283 723 283 562V392H479L458 351H283V315Q283
268 259 215T195 121H579L611 202L640 193V-17Z" />
<glyph unicode="&#xa4;" glyph-name="currency" horiz-adv-x="898" d="M765 352T739 300T667 206L830 43L799 12L632 178Q582 140 525 119T415 98Q315 98 242 152L103 13L72 44L209 181Q173 218 154 267T135 374Q135 431 161 482T233 577L71 739L102 770L267 605Q317
642 375 663T485 685Q586 685 659 631L798 770L829 739L691 602Q726 565 744 516T763 410L765 408Q765 352 739 300ZM521 182T562 205T626 270T650 361Q650 466 594 533T428 600Q380 600 339 577T275 512T251 421Q251 354 275 300T349 214T473 182Q521 182 562
205Z" />
<glyph unicode="&#xa5;" glyph-name="yen" horiz-adv-x="803" d="M488 342H731L710 301H462L460 298V202H731L710 161H460V76L565 40L545 0H241V31L335 105V161H65L86 202H335V283L324 301H65L86 342H299L79 698L0 746L20 786H324V755L231 683L431 358L639 683L479
746L499 786H803V755L720 705L488 342Z" />
<glyph unicode="&#xa6;" glyph-name="brokenbar" horiz-adv-x="373" d="M159 523V986H214V523H159ZM159 -200V263H214V-200H159Z" />
<glyph unicode="&#xa7;" glyph-name="section" horiz-adv-x="675" d="M247 160T227 201T165 309Q115 387 90 442T65 562Q65 612 107 669T209 766T321 806Q383 806 465 791T585 759V585H547Q533 635 512 660T467 686Q451 686 442 664T433 608Q433 563 453 520T517
410Q566 334 590 280T615 163Q615 114 571 57T462 -41T343 -81Q278 -81 189 -66T60 -34V140H98Q117 94 144 67T198 39Q219 39 233 61T247 117Q247 160 227 201ZM331 642T356 675T443 740Q404 748 330 748Q295 748 254 720T186 651T158 574Q158 521 182 468T256
336Q300 264 322 217T345 125Q345 83 320 50T233 -15Q272 -23 346 -23Q380 -23 420 5T489 73T518 151Q518 203 494 255T422 382Q377 455 354 504T331 600Q331 642 356 675Z" />
<glyph unicode="&#xa8;" glyph-name="dieresis" horiz-adv-x="600" d="M206 846T223 825T241 773Q241 751 229 732T197 701T160 690Q133 690 116 710T98 763Q98 784 110 803T142 834T179 846Q206 846 223 825ZM476 846T493 825T511 773Q511 751 499 732T467 701T430
690Q403 690 386 710T368 763Q368 784 380 803T412 834T449 846Q476 846 493 825Z" />
<glyph unicode="&#xa9;" glyph-name="copyright" horiz-adv-x="1009" d="M658 806T748 755T889 614T939 410Q939 293 865 194T680 38T469 -20Q351 -20 261 30T120 171T70 375Q70 492 144 591T329 748T540 806Q658 806 748 755ZM398 722T330 684T224 577T185 423Q185
325 222 244T336 113T527 64Q611 64 679 102T785 209T824 363Q824 462 787 543T673 673T482 722Q398 722 330 684ZM562 624T603 613T663 587V433H625Q596 483 555 511T471 540Q445 540 432 512T418 429Q418 355 448 307T536 258Q581 258 658 310L688 272L574 181Q534
173 478 173Q424 173 381 201T313 276T288 381Q288 445 325 501T418 590T529 624Q562 624 603 613Z" />
<glyph unicode="&#xaa;" glyph-name="ordfeminine" horiz-adv-x="541" d="M499 415H337V480L241 414Q224 408 199 408Q125 408 93 440T60 517Q60 544 82 570T145 620H337V668Q337 717 308 737T227 757Q175 757 98 701L73 729L195 815Q229 821 277 821Q354 821
396 788T439 690V471L516 445L499 415ZM278 471T337 513V589H187Q176 577 171 565T166 539Q166 511 182 491T226 471Q278 471 337 513Z" />
<glyph unicode="&#xab;" glyph-name="guillemotleft" horiz-adv-x="669" d="M339 51L304 26L50 267L304 508L339 483L212 288L339 51ZM556 111L521 86L330 267L521 448L556 423L492 289L556 111Z" />
<glyph unicode="&#xac;" glyph-name="logicalnot" horiz-adv-x="578" d="M488 85H447V288H40V329H487V309H488V85Z" />
<glyph unicode="&#xad;" glyph-name="softhyphen" horiz-adv-x="513" d="M80 298L120 349H433V319L393 268H80V298Z" />
<glyph unicode="&#xae;" glyph-name="registered" horiz-adv-x="1009" d="M658 806T748 755T889 614T939 410Q939 293 865 194T680 38T469 -20Q351 -20 261 30T120 171T70 375Q70 492 144 591T329 748T540 806Q658 806 748 755ZM611 64T679 102T785 209T824 363Q824
462 787 543T673 673T482 722Q398 722 330 684T224 577T185 423Q185 325 222 244T336 113T527 64Q611 64 679 102ZM753 222L733 182H587L522 318Q512 339 502 350T472 365L463 366V182H284V213L348 268V543L274 569L294 609H370Q436 609 498 615Q542 619 564 619Q626
619 664 589T703 513Q703 470 657 431T547 374L642 345L684 255L753 222ZM580 510T557 532T488 554Q474 554 464 548V418Q485 412 511 412Q543 412 560 428T578 476L580 475Q580 510 557 532Z" />
<glyph unicode="&#xaf;" glyph-name="overscore" horiz-adv-x="600" d="M95 794H513V749H95V794Z" />
<glyph unicode="&#xb0;" glyph-name="degree" horiz-adv-x="431" d="M298 883T334 844T371 747Q371 696 342 656T268 594T176 572Q113 572 77 612T40 709Q40 759 69 798T143 860T235 883Q298 883 334 844ZM165 819T143 799T120 741Q120 701 146 669T212 636Q245
636 268 658T291 716Q291 755 266 787T198 819Q165 819 143 799Z" />
<glyph unicode="&#xb1;" glyph-name="plusminus" horiz-adv-x="527" d="M284 288V85H243V288H40V329H243V532H284V329H487V288H284ZM40 -31H487V-72H40V-31Z" />
<glyph unicode="&#xb2;" glyph-name="twosuperior" horiz-adv-x="491" d="M439 402L389 415H44V446Q145 516 198 559T273 629T294 679Q294 711 265 731T191 752Q141 752 69 700L45 736L160 816Q183 822 213 822Q297 822 347 794T398 719Q398 652 199 500H383L409
559L439 549V402Z" />
<glyph unicode="&#xb3;" glyph-name="threesuperior" horiz-adv-x="467" d="M344 561T370 534T396 474Q396 399 313 341T46 230L34 274Q139 306 193 330T270 379T292 441Q292 467 271 486T185 537V565Q229 610 243 633T258 679Q258 711 234 731T171 752Q123 752
50 700L26 736L141 816Q156 822 174 822Q225 822 268 808T336 771T362 719Q360 694 341 667T276 598V599Q344 561 370 534Z" />
<glyph unicode="&#xb4;" glyph-name="acute" horiz-adv-x="380" d="M360 849L140 676L100 696L207 892L341 873L360 849Z" />
<glyph unicode="&#xb5;" glyph-name="uni00B5" horiz-adv-x="696" d="M578 154T594 121T636 59L496 -10H458V104L331 -2Q310 -10 276 -10Q266 -10 248 -8V-63Q247 -89 263 -122T306 -185L166 -254H128V359Q129 385 113 418T70 481L210 550H248V194Q248 139 265
117T326 95Q357 95 387 106T458 152V359Q458 386 442 419T400 481L540 550H578V181Q578 154 594 121Z" />
<glyph unicode="&#xb6;" glyph-name="paragraph" horiz-adv-x="832" d="M360 795T400 790Q468 785 502 785H527V-255H348V-224L472 -127V319Q404 318 336 314Q278 310 249 310Q190 310 145 339T75 421T50 536Q50 605 92 665T198 760T320 796V795Q360 795 400 790ZM762
-255H622V785H772V754L677 680V-179L782 -215L762 -255Z" />
<glyph unicode="&#xb7;" glyph-name="middot" horiz-adv-x="339" d="M210 350T229 328T249 273Q249 250 235 230T200 197T159 185Q129 185 110 207T90 262Q90 285 104 305T139 338T180 350Q210 350 229 328Z" />
<glyph unicode="&#xb8;" glyph-name="cedilla" horiz-adv-x="600" d="M377 -84T395 -109T413 -162Q413 -208 366 -233T221 -263V-232Q314 -202 314 -144Q314 -122 300 -105T249 -65L407 65L437 42Q421 28 373 -10L328 -47L329 -46Q377 -84 395 -109Z" />
<glyph unicode="&#xb9;" glyph-name="onesuperior" horiz-adv-x="427" d="M331 415H88V447L166 500V751L80 777L96 815H339V783L262 730V478L347 453L331 415Z" />
<glyph unicode="&#xba;" glyph-name="ordmasculine" horiz-adv-x="591" d="M381 821T426 795T496 725T521 627Q521 570 481 519T381 438T265 408Q209 408 165 433T95 503T69 601Q69 659 109 709T209 790T325 821Q381 821 426 795ZM180 758T180 637Q180 566 215
519T314 471Q410 471 410 592Q410 663 376 710T276 758Q180 758 180 637Z" />
<glyph unicode="&#xbb;" glyph-name="guillemotright" horiz-adv-x="669" d="M365 25L330 50L457 245L330 482L365 507L619 266L365 25ZM148 85L113 110L177 244L113 422L148 447L339 266L148 85Z" />
<glyph unicode="&#xbc;" glyph-name="onequarter" horiz-adv-x="1044" d="M331 415H88V447L166 500V751L80 777L96 815H339V783L262 730V478L347 453L331 415ZM249 -192L211 -173L832 996L871 978L249 -192ZM897 -46V-187L801 -229V-46H505V-15L801 300L897 341V13H1019L991
-46H897ZM801 221L611 13H801V221Z" />
<glyph unicode="&#xbd;" glyph-name="onehalf" horiz-adv-x="1126" d="M331 415H88V447L166 500V751L80 777L96 815H339V783L262 730V478L347 453L331 415ZM249 -192L211 -173L832 996L871 978L249 -192ZM1074 -92L1024 -79H679V-48Q780 22 833 65T908 135T929
185Q929 217 900 237T826 258Q776 258 704 206L680 242L795 322Q818 328 848 328Q932 328 982 300T1033 225Q1033 158 834 6H1018L1044 65L1074 55V-92Z" />
<glyph unicode="&#xbe;" glyph-name="threequarters" horiz-adv-x="1084" d="M344 561T370 534T396 474Q396 399 313 341T46 230L34 274Q139 306 193 330T270 379T292 441Q292 467 271 486T185 537V565Q229 610 243 633T258 679Q258 711 234 731T171 752Q123 752
50 700L26 736L141 816Q156 822 174 822Q225 822 268 808T336 771T362 719Q360 694 341 667T276 598V599Q344 561 370 534ZM289 -192L251 -173L872 996L911 978L289 -192ZM937 -46V-187L841 -229V-46H545V-15L841 300L937 341V13H1059L1031 -46H937ZM841 221L651
13H841V221Z" />
<glyph unicode="&#xbf;" glyph-name="questiondown" horiz-adv-x="404" d="M254 541T273 519T293 464Q293 441 279 421T244 388T203 376Q173 376 154 398T134 453Q134 476 148 496T183 529T224 541Q254 541 273 519ZM293 226T293 172Q293 138 266 109T188 42Q150
14 132 -4T113 -40Q113 -65 136 -98T195 -155T267 -179Q308 -179 374 -141L404 -179L305 -256Q265 -264 209 -264Q172 -264 122 -239T36 -174T0 -96Q0 -60 27 -31T108 39Q145 66 162 83T180 116Q180 155 138 193V224L243 276Q293 226 293 172Z" />
<glyph unicode="&#xc0;" glyph-name="Agrave" horiz-adv-x="870" d="M850 0H546V31L640 104L563 289H227L145 100L321 40L301 0H-3V31L91 105L374 754L478 805L770 101L870 40L850 0ZM399 685L247 334H545L399 685ZM456 931L236 1104L255 1128L389 1147L496 951L456 931Z" />
<glyph unicode="&#xc1;" glyph-name="Aacute" horiz-adv-x="870" d="M850 0H546V31L640 104L563 289H227L145 100L321 40L301 0H-3V31L91 105L374 754L478 805L770 101L870 40L850 0ZM399 685L247 334H545L399 685ZM635 1104L415 931L375 951L482 1147L616 1128L635
1104Z" />
<glyph unicode="&#xc2;" glyph-name="Acircumflex" horiz-adv-x="870" d="M850 0H546V31L640 104L563 289H227L145 100L321 40L301 0H-3V31L91 105L374 754L478 805L770 101L870 40L850 0ZM399 685L247 334H545L399 685ZM640 935L516 916L399 1050L241 925L211
963L432 1138L659 959L640 935Z" />
<glyph unicode="&#xc3;" glyph-name="Atilde" horiz-adv-x="870" d="M850 0H546V31L640 104L563 289H227L145 100L321 40L301 0H-3V31L91 105L374 754L478 805L770 101L870 40L850 0ZM399 685L247 334H545L399 685ZM456 1062T521 1062Q553 1062 583 1084L617 1110L647
1072L486 945Q413 1020 349 1020Q315 1020 284 997L252 973L222 1011L383 1138Q456 1062 521 1062Z" />
<glyph unicode="&#xc4;" glyph-name="Adieresis" horiz-adv-x="870" d="M243 945T226 966T208 1018Q208 1040 220 1059T252 1089T289 1101Q316 1101 333 1080T351 1028Q351 1006 339 987T307 957T270 945Q243 945 226 966ZM553 945T536 966T518 1018Q518 1040
530 1059T562 1089T599 1101Q626 1101 643 1080T661 1028Q661 1006 649 987T617 957T580 945Q553 945 536 966ZM850 0H546V31L640 104L563 289H227L145 100L321 40L301 0H-3V31L91 105L374 754L478 805L770 101L870 40L850 0ZM399 685L247 334H545L399 685Z" />
<glyph unicode="&#xc5;" glyph-name="Aring" horiz-adv-x="870" d="M850 0H546V31L640 104L563 289H227L145 100L321 40L301 0H-3V31L91 105L374 754L478 805L770 101L870 40L850 0ZM399 685L247 334H545L399 685ZM517 1138T548 1110T580 1040Q580 1005 552 975T482
926T399 907Q353 907 321 935T289 1005Q289 1040 317 1070T387 1119T470 1138Q517 1138 548 1110ZM386 1094T373 1084T359 1053Q359 1009 384 980T457 951Q483 951 496 962T510 993Q510 1037 485 1065T412 1094Q386 1094 373 1084Z" />
<glyph unicode="&#xc6;" glyph-name="AE" horiz-adv-x="1100" d="M945 -1H375V30L469 104V378H291L135 100L291 39L271 -1H-3V30L72 89L415 702L286 746L306 786H936L990 804V574L960 564L841 741H595V424H722L795 552H826V248L786 228L723 379H595V45H837L970
242L1000 232L999 -19L945 -1ZM469 694L316 423H469V694Z" />
<glyph unicode="&#xc7;" glyph-name="Ccedilla" horiz-adv-x="820" d="M530 -12T490 -17L453 -47Q501 -85 519 -110T537 -163Q537 -209 490 -234T345 -264V-233Q438 -203 438 -145Q438 -123 424 -106T373 -66L430 -20H427Q322 -20 241 31T115 171T70 375Q70 492
138 591T307 748T500 806Q553 806 622 791T724 759V565H686Q594 722 442 722Q376 722 322 684T236 577T205 423Q205 325 235 244T328 114T483 65Q568 65 727 193L757 145L573 2H571Q530 -12 490 -17Z" />
<glyph unicode="&#xc8;" glyph-name="Egrave" horiz-adv-x="814" d="M660 0H60V31L154 105V711L50 746L70 786H650L704 804V574L674 564L555 741H279V424H436L509 552H540V248L500 228L437 379H279V45H551L684 242L714 232V-18L660 0ZM428 931L208 1104L227 1128L361
1147L468 951L428 931Z" />
<glyph unicode="&#xc9;" glyph-name="Eacute" horiz-adv-x="814" d="M660 0H60V31L154 105V711L50 746L70 786H650L704 804V574L674 564L555 741H279V424H436L509 552H540V248L500 228L437 379H279V45H551L684 242L714 232V-18L660 0ZM607 1104L387 931L347 951L454
1147L588 1128L607 1104Z" />
<glyph unicode="&#xca;" glyph-name="Ecircumflex" horiz-adv-x="814" d="M660 0H60V31L154 105V711L50 746L70 786H650L704 804V574L674 564L555 741H279V424H436L509 552H540V248L500 228L437 379H279V45H551L684 242L714 232V-18L660 0ZM612 935L488 916L371
1050L213 925L183 963L404 1138L631 959L612 935Z" />
<glyph unicode="&#xcb;" glyph-name="Edieresis" horiz-adv-x="814" d="M215 945T198 966T180 1018Q180 1040 192 1059T224 1089T261 1101Q288 1101 305 1080T323 1028Q323 1006 311 987T279 957T242 945Q215 945 198 966ZM525 945T508 966T490 1018Q490 1040
502 1059T534 1089T571 1101Q598 1101 615 1080T633 1028Q633 1006 621 987T589 957T552 945Q525 945 508 966ZM660 0H60V31L154 105V711L50 746L70 786H650L704 804V574L674 564L555 741H279V424H436L509 552H540V248L500 228L437 379H279V45H551L684 242L714
232V-18L660 0Z" />
<glyph unicode="&#xcc;" glyph-name="Igrave" horiz-adv-x="434" d="M364 0H60V31L154 105V711L50 746L70 786H374V755L279 681V76L384 40L364 0ZM238 931L18 1104L37 1128L171 1147L278 951L238 931Z" />
<glyph unicode="&#xcd;" glyph-name="Iacute" horiz-adv-x="434" d="M364 0H60V31L154 105V711L50 746L70 786H374V755L279 681V76L384 40L364 0ZM417 1104L197 931L157 951L264 1147L398 1128L417 1104Z" />
<glyph unicode="&#xce;" glyph-name="Icircumflex" horiz-adv-x="434" d="M364 0H60V31L154 105V711L50 746L70 786H374V755L279 681V76L384 40L364 0ZM422 935L298 916L181 1050L23 925L-7 963L214 1138L441 959L422 935Z" />
<glyph unicode="&#xcf;" glyph-name="Idieresis" horiz-adv-x="434" d="M364 0H60V31L154 105V711L50 746L70 786H374V755L279 681V76L384 40L364 0ZM118 1101T135 1080T153 1028Q153 1006 141 987T109 956T72 945Q45 945 28 965T10 1018Q10 1039 22 1058T54 1089T91
1101Q118 1101 135 1080ZM388 1101T405 1080T423 1028Q423 1006 411 987T379 956T342 945Q315 945 298 965T280 1018Q280 1039 292 1058T324 1089T361 1101Q388 1101 405 1080Z" />
<glyph unicode="&#xd0;" glyph-name="Eth" horiz-adv-x="889" d="M573 795T652 746T775 608T819 409Q819 295 753 199T588 46T399 -11Q353 -11 306 -6Q229 -1 187 -1H60V30L154 104V712L50 746L70 786H186Q281 786 371 792Q439 796 470 796V795Q573 795 652 746ZM499
63T558 101T650 208T684 362Q684 464 652 547T555 681T392 731Q331 731 279 695V88Q340 63 427 63Q499 63 558 101ZM250 414V414V414V414V414ZM250 414V414V414V414V414Z" />
<glyph unicode="&#xd1;" glyph-name="Ntilde" horiz-adv-x="874" d="M739 680V-1H684L209 600V92L314 39L294 -1H60V30L154 104V690L50 746L70 786H221L684 200V694L580 746L600 786H834V754L739 680ZM458 1062T523 1062Q555 1062 585 1084L619 1110L649 1072L488
945Q415 1020 351 1020Q317 1020 286 997L254 973L224 1011L385 1138Q458 1062 523 1062Z" />
<glyph unicode="&#xd2;" glyph-name="Ograve" horiz-adv-x="929" d="M606 806T687 755T814 614T859 410Q859 293 791 194T622 38T429 -20Q323 -20 242 30T115 171T70 375Q70 492 138 591T307 748T500 806Q606 806 687 755ZM376 722T322 684T236 577T205 423Q205
325 236 244T330 113T487 64Q553 64 607 102T693 209T724 363Q724 462 693 543T599 673T442 722Q376 722 322 684ZM486 931L266 1104L285 1128L419 1147L526 951L486 931Z" />
<glyph unicode="&#xd3;" glyph-name="Oacute" horiz-adv-x="929" d="M606 806T687 755T814 614T859 410Q859 293 791 194T622 38T429 -20Q323 -20 242 30T115 171T70 375Q70 492 138 591T307 748T500 806Q606 806 687 755ZM376 722T322 684T236 577T205 423Q205
325 236 244T330 113T487 64Q553 64 607 102T693 209T724 363Q724 462 693 543T599 673T442 722Q376 722 322 684ZM665 1104L445 931L405 951L512 1147L646 1128L665 1104Z" />
<glyph unicode="&#xd4;" glyph-name="Ocircumflex" horiz-adv-x="929" d="M606 806T687 755T814 614T859 410Q859 293 791 194T622 38T429 -20Q323 -20 242 30T115 171T70 375Q70 492 138 591T307 748T500 806Q606 806 687 755ZM376 722T322 684T236 577T205 423Q205
325 236 244T330 113T487 64Q553 64 607 102T693 209T724 363Q724 462 693 543T599 673T442 722Q376 722 322 684ZM670 935L546 916L429 1050L271 925L241 963L462 1138L689 959L670 935Z" />
<glyph unicode="&#xd5;" glyph-name="Otilde" horiz-adv-x="929" d="M606 806T687 755T814 614T859 410Q859 293 791 194T622 38T429 -20Q323 -20 242 30T115 171T70 375Q70 492 138 591T307 748T500 806Q606 806 687 755ZM376 722T322 684T236 577T205 423Q205
325 236 244T330 113T487 64Q553 64 607 102T693 209T724 363Q724 462 693 543T599 673T442 722Q376 722 322 684ZM486 1062T551 1062Q583 1062 613 1084L647 1110L677 1072L516 945Q443 1020 379 1020Q345 1020 314 997L282 973L252 1011L413 1138Q486 1062 551
1062Z" />
<glyph unicode="&#xd6;" glyph-name="Odieresis" horiz-adv-x="929" d="M346 1101T363 1080T381 1028Q381 1006 369 987T337 957T300 945Q273 945 256 966T238 1018Q238 1040 250 1059T282 1089T319 1101Q346 1101 363 1080ZM656 1101T673 1080T691 1028Q691 1006
679 987T647 957T610 945Q583 945 566 966T548 1018Q548 1040 560 1059T592 1089T629 1101Q656 1101 673 1080ZM606 806T687 755T814 614T859 410Q859 293 791 194T622 38T429 -20Q323 -20 242 30T115 171T70 375Q70 492 138 591T307 748T500 806Q606 806 687 755ZM376
722T322 684T236 577T205 423Q205 325 236 244T330 113T487 64Q553 64 607 102T693 209T724 363Q724 462 693 543T599 673T442 722Q376 722 322 684Z" />
<glyph unicode="&#xd7;" glyph-name="multiply" horiz-adv-x="509" d="M469 122L440 93L254 279L68 93L39 122L225 308L39 494L68 523L254 337L440 523L469 494L283 308L469 122Z" />
<glyph unicode="&#xd8;" glyph-name="Oslash" horiz-adv-x="929" d="M773 698T816 609T859 409Q859 292 791 193T622 37T429 -21Q343 -21 272 13L178 -150L140 -128L234 35Q157 86 114 174T71 373Q71 490 139 589T308 746T501 804Q587 804 658 770L753 935L791
913L696 749Q773 698 816 609ZM205 339T228 266T296 144L601 672Q535 721 442 721Q376 721 322 683T236 576T205 422V423Q205 339 228 266ZM553 63T607 101T693 208T724 362Q724 447 702 519T634 641L329 113Q395 64 487 64V63Q553 63 607 101Z" />
<glyph unicode="&#xd9;" glyph-name="Ugrave" horiz-adv-x="898" d="M773 681V310Q773 205 723 130T598 18T453 -20Q364 -20 294 19T184 128T144 285V711L40 746L60 786H364V755L269 681V333Q269 206 331 135T521 64Q568 64 613 94T688 184T718 323V694L614 746L634
786H868V755L773 681ZM483 931L263 1104L282 1128L416 1147L523 951L483 931Z" />
<glyph unicode="&#xda;" glyph-name="Uacute" horiz-adv-x="898" d="M773 681V310Q773 205 723 130T598 18T453 -20Q364 -20 294 19T184 128T144 285V711L40 746L60 786H364V755L269 681V333Q269 206 331 135T521 64Q568 64 613 94T688 184T718 323V694L614 746L634
786H868V755L773 681ZM662 1104L442 931L402 951L509 1147L643 1128L662 1104Z" />
<glyph unicode="&#xdb;" glyph-name="Ucircumflex" horiz-adv-x="898" d="M773 681V310Q773 205 723 130T598 18T453 -20Q364 -20 294 19T184 128T144 285V711L40 746L60 786H364V755L269 681V333Q269 206 331 135T521 64Q568 64 613 94T688 184T718 323V694L614
746L634 786H868V755L773 681ZM667 935L543 916L426 1050L268 925L238 963L459 1138L686 959L667 935Z" />
<glyph unicode="&#xdc;" glyph-name="Udieresis" horiz-adv-x="898" d="M270 945T253 966T235 1018Q235 1040 247 1059T279 1089T316 1101Q343 1101 360 1080T378 1028Q378 1006 366 987T334 957T297 945Q270 945 253 966ZM580 945T563 966T545 1018Q545 1040
557 1059T589 1089T626 1101Q653 1101 670 1080T688 1028Q688 1006 676 987T644 957T607 945Q580 945 563 966ZM773 681V310Q773 205 723 130T598 18T453 -20Q364 -20 294 19T184 128T144 285V711L40 746L60 786H364V755L269 681V333Q269 206 331 135T521 64Q568
64 613 94T688 184T718 323V694L614 746L634 786H868V755L773 681Z" />
<glyph unicode="&#xdd;" glyph-name="Yacute" horiz-adv-x="803" d="M461 76L566 40L546 0H242V31L336 105V283L79 698L0 746L20 786H324V755L231 683L431 358L639 683L479 746L499 786H803V755L721 705L461 298V76ZM602 1104L382 931L342 951L449 1147L583 1128L602
1104Z" />
<glyph unicode="&#xde;" glyph-name="Thorn" horiz-adv-x="779" d="M551 607T605 581T690 510T720 411Q720 350 669 295T539 209T384 181L337 215L357 255H438Q506 255 545 284T585 364Q585 442 539 492T403 543Q335 543 279 504V75L384 39L364 -1H60V30L154 104V710L50
745L70 785H374V754L279 680V599Q320 600 375 604Q447 608 480 608L481 607Q551 607 605 581Z" />
<glyph unicode="&#xdf;" glyph-name="germandbls" horiz-adv-x="779" d="M473 438T499 412T581 347Q624 317 649 296T692 247T710 184Q710 144 682 98T613 21T538 -10Q495 -10 437 -2T355 17V171H393Q421 114 462 82T543 50Q567 50 582 73T597 128Q597 160 572
185T492 249Q448 280 423 302T379 353T360 417Q360 454 381 484T443 556Q476 588 493 611T510 659Q510 684 487 717T428 775T356 799Q310 799 287 758T263 638V0H54V31L143 101V460H25V501H143V590Q143 667 185 735T290 843T414 883Q451 883 501 858T587 793T623
715Q623 676 602 647T541 579Q507 547 490 524T473 473Q473 438 499 412Z" />
<glyph unicode="&#xe0;" glyph-name="agrave" horiz-adv-x="621" d="M576 0H386V87L273 -2Q253 -10 223 -10Q137 -10 99 33T60 136Q60 172 86 207T160 273H386V337Q386 402 352 429T257 456Q195 456 105 381L75 419L219 533Q259 541 315 541Q406 541 456 497T506
367V75L596 40L576 0ZM316 75T386 131V232H209Q196 216 191 200T185 165Q185 128 204 102T255 75Q316 75 386 131ZM320 676L100 849L119 873L253 892L360 696L320 676Z" />
<glyph unicode="&#xe1;" glyph-name="aacute" horiz-adv-x="621" d="M576 0H386V87L273 -2Q253 -10 223 -10Q137 -10 99 33T60 136Q60 172 86 207T160 273H386V337Q386 402 352 429T257 456Q195 456 105 381L75 419L219 533Q259 541 315 541Q406 541 456 497T506
367V75L596 40L576 0ZM316 75T386 131V232H209Q196 216 191 200T185 165Q185 128 204 102T255 75Q316 75 386 131ZM499 849L279 676L239 696L346 892L480 873L499 849Z" />
<glyph unicode="&#xe2;" glyph-name="acircumflex" horiz-adv-x="621" d="M576 0H386V87L273 -2Q253 -10 223 -10Q137 -10 99 33T60 136Q60 172 86 207T160 273H386V337Q386 402 352 429T257 456Q195 456 105 381L75 419L219 533Q259 541 315 541Q406 541 456
497T506 367V75L596 40L576 0ZM316 75T386 131V232H209Q196 216 191 200T185 165Q185 128 204 102T255 75Q316 75 386 131ZM504 680L380 661L263 795L105 670L75 708L296 883L523 704L504 680Z" />
<glyph unicode="&#xe3;" glyph-name="atilde" horiz-adv-x="621" d="M576 0H386V87L273 -2Q253 -10 223 -10Q137 -10 99 33T60 136Q60 172 86 207T160 273H386V337Q386 402 352 429T257 456Q195 456 105 381L75 419L219 533Q259 541 315 541Q406 541 456 497T506
367V75L596 40L576 0ZM316 75T386 131V232H209Q196 216 191 200T185 165Q185 128 204 102T255 75Q316 75 386 131ZM320 807T385 807Q417 807 447 829L481 855L511 817L350 690Q277 765 213 765Q179 765 148 742L116 718L86 756L247 883Q320 807 385 807Z" />
<glyph unicode="&#xe4;" glyph-name="adieresis" horiz-adv-x="621" d="M127 690T110 711T92 763Q92 785 104 804T136 834T173 846Q200 846 217 825T235 773Q235 751 223 732T191 702T154 690Q127 690 110 711ZM397 690T380 711T362 763Q362 785 374 804T406 834T443
846Q470 846 487 825T505 773Q505 751 493 732T461 702T424 690Q397 690 380 711ZM576 0H386V87L273 -2Q253 -10 223 -10Q137 -10 99 33T60 136Q60 172 86 207T160 273H386V337Q386 402 352 429T257 456Q195 456 105 381L75 419L219 533Q259 541 315 541Q406 541
456 497T506 367V75L596 40L576 0ZM316 75T386 131V232H209Q196 216 191 200T185 165Q185 128 204 102T255 75Q316 75 386 131Z" />
<glyph unicode="&#xe5;" glyph-name="aring" horiz-adv-x="621" d="M576 0H386V87L273 -2Q253 -10 223 -10Q137 -10 99 33T60 136Q60 172 86 207T160 273H386V337Q386 402 352 429T257 456Q195 456 105 381L75 419L219 533Q259 541 315 541Q406 541 456 497T506
367V75L596 40L576 0ZM316 75T386 131V232H209Q196 216 191 200T185 165Q185 128 204 102T255 75Q316 75 386 131ZM381 883T412 855T444 785Q444 750 416 720T346 671T263 652Q217 652 185 680T153 750Q153 785 181 815T251 864T334 883Q381 883 412 855ZM250 839T237
829T223 798Q223 754 248 725T321 696Q347 696 360 707T374 738Q374 782 349 810T276 839Q250 839 237 829Z" />
<glyph unicode="&#xe6;" glyph-name="ae" horiz-adv-x="916" d="M706 75T813 162L843 124L685 -2Q645 -10 589 -10Q535 -10 490 17T416 93L303 -2Q271 -10 223 -10Q137 -10 99 33T60 136Q60 172 85 206T160 272H376V337Q376 456 257 456Q195 456 105 381L75 419L219
533Q259 541 315 541Q374 541 415 520T477 459Q519 497 569 519T666 541Q752 541 799 466T846 268H506Q512 184 549 130T648 75H647Q706 75 813 162ZM509 457T504 309H708Q700 365 693 392T666 438T607 457Q509 457 504 309ZM324 74T394 137Q377 182 374 232H208Q195
216 190 200T184 165Q184 128 206 102T264 75L265 74Q324 74 394 137Z" />
<glyph unicode="&#xe7;" glyph-name="ccedilla" horiz-adv-x="613" d="M389 -86T407 -111T425 -164Q425 -210 378 -235T233 -265V-234Q326 -204 326 -146Q326 -124 312 -107T261 -67L330 -10H300Q234 -10 182 24T100 118T70 248Q70 325 113 393T223 501T351 541Q392
541 446 530T525 504V350H487Q448 400 398 428T293 457Q247 457 224 416T200 296Q200 202 241 139T358 75Q415 75 520 157L550 119L413 11L341 -47V-48Q389 -86 407 -111Z" />
<glyph unicode="&#xe8;" glyph-name="egrave" horiz-adv-x="643" d="M396 -2Q356 -10 300 -10Q234 -10 182 24T100 118T70 248Q70 325 117 392T234 500T371 541Q466 541 518 466T571 268H201Q207 183 247 129T358 75Q423 75 543 176L573 138L396 -2ZM205 457T200
309H434Q425 363 416 391T383 438T313 457Q205 457 200 309ZM343 676L123 849L142 873L276 892L383 696L343 676Z" />
<glyph unicode="&#xe9;" glyph-name="eacute" horiz-adv-x="643" d="M396 -2Q356 -10 300 -10Q234 -10 182 24T100 118T70 248Q70 325 117 392T234 500T371 541Q466 541 518 466T571 268H201Q207 183 247 129T358 75Q423 75 543 176L573 138L396 -2ZM205 457T200
309H434Q425 363 416 391T383 438T313 457Q205 457 200 309ZM522 849L302 676L262 696L369 892L503 873L522 849Z" />
<glyph unicode="&#xea;" glyph-name="ecircumflex" horiz-adv-x="643" d="M396 -2Q356 -10 300 -10Q234 -10 182 24T100 118T70 248Q70 325 117 392T234 500T371 541Q466 541 518 466T571 268H201Q207 183 247 129T358 75Q423 75 543 176L573 138L396 -2ZM205
457T200 309H434Q425 363 416 391T383 438T313 457Q205 457 200 309ZM527 680L403 661L286 795L128 670L98 708L319 883L546 704L527 680Z" />
<glyph unicode="&#xeb;" glyph-name="edieresis" horiz-adv-x="643" d="M150 690T133 711T115 763Q115 785 127 804T159 834T196 846Q223 846 240 825T258 773Q258 751 246 732T214 702T177 690Q150 690 133 711ZM420 690T403 711T385 763Q385 785 397 804T429
834T466 846Q493 846 510 825T528 773Q528 751 516 732T484 702T447 690Q420 690 403 711ZM396 -2Q356 -10 300 -10Q234 -10 182 24T100 118T70 248Q70 325 117 392T234 500T371 541Q466 541 518 466T571 268H201Q207 183 247 129T358 75Q423 75 543 176L573 138L396
-2ZM205 457T200 309H434Q425 363 416 391T383 438T313 457Q205 457 200 309Z" />
<glyph unicode="&#xec;" glyph-name="igrave" horiz-adv-x="389" d="M334 0H55V31L144 101V393L55 455V486L226 550H264V75L354 40L334 0ZM467 676L247 849L266 873L400 892L507 696L467 676Z" />
<glyph unicode="&#xed;" glyph-name="iacute" horiz-adv-x="389" d="M334 0H55V31L144 101V393L55 455V486L226 550H264V75L354 40L334 0ZM390 849L170 676L130 696L237 892L371 873L390 849Z" />
<glyph unicode="&#xee;" glyph-name="icircumflex" horiz-adv-x="389" d="M334 0H55V31L144 101V393L55 455V486L226 550H264V75L354 40L334 0ZM651 680L527 661L410 795L252 670L222 708L443 883L670 704L651 680Z" />
<glyph unicode="&#xef;" glyph-name="idieresis" horiz-adv-x="389" d="M126 751T114 732T82 702T45 690Q18 690 1 711T-17 763Q-17 785 -5 804T27 834T64 846Q91 846 108 825T126 773Q126 751 114 732ZM361 846T378 825T396 773Q396 751 384 732T352 702T315
690Q288 690 271 711T253 763Q253 785 265 804T297 834T334 846Q361 846 378 825ZM354 40L334 0H55V31L144 101V393L55 455V486L226 550H264V75L354 40Z" />
<glyph unicode="&#xf0;" glyph-name="eth" horiz-adv-x="671" d="M492 663T546 555T600 341Q600 249 558 168T447 37T299 -12Q234 -12 182 22T99 115T69 246Q69 317 113 385T227 496T370 539Q381 539 409 537Q364 618 294 682L119 576L98 612L260 710Q171 779
62 809V840L178 883Q278 853 370 778L544 883L566 847L403 749L402 747Q492 663 546 555ZM417 72T445 123T474 284Q474 373 445 455H312Q199 455 199 294Q199 228 218 178T274 100T357 72H356Q417 72 445 123Z" />
<glyph unicode="&#xf1;" glyph-name="ntilde" horiz-adv-x="719" d="M674 -1H484V336Q484 391 467 413T406 435Q373 435 341 423T264 377V74L354 39L334 -1H55V30L144 100V383L55 435V466L226 550L259 420L401 533Q422 541 456 541Q524 541 564 500T604 387V75L694
39L674 -1ZM371 807T436 807Q468 807 498 829L532 855L562 817L401 690Q328 765 264 765Q230 765 199 742L167 718L137 756L298 883Q371 807 436 807Z" />
<glyph unicode="&#xf2;" glyph-name="ograve" horiz-adv-x="671" d="M437 541T489 507T571 413T601 283Q601 206 554 139T437 31T300 -10Q234 -10 182 24T100 118T70 248Q70 325 117 392T234 500T371 541Q437 541 489 507ZM200 457T200 296Q200 201 241 138T358
74Q471 74 471 236Q471 330 430 393T313 457Q200 457 200 296ZM357 676L137 849L156 873L290 892L397 696L357 676Z" />
<glyph unicode="&#xf3;" glyph-name="oacute" horiz-adv-x="671" d="M437 541T489 507T571 413T601 283Q601 206 554 139T437 31T300 -10Q234 -10 182 24T100 118T70 248Q70 325 117 392T234 500T371 541Q437 541 489 507ZM200 457T200 296Q200 201 241 138T358
74Q471 74 471 236Q471 330 430 393T313 457Q200 457 200 296ZM536 849L316 676L276 696L383 892L517 873L536 849Z" />
<glyph unicode="&#xf4;" glyph-name="ocircumflex" horiz-adv-x="671" d="M437 541T489 507T571 413T601 283Q601 206 554 139T437 31T300 -10Q234 -10 182 24T100 118T70 248Q70 325 117 392T234 500T371 541Q437 541 489 507ZM200 457T200 296Q200 201 241 138T358
74Q471 74 471 236Q471 330 430 393T313 457Q200 457 200 296ZM541 680L417 661L300 795L142 670L112 708L333 883L560 704L541 680Z" />
<glyph unicode="&#xf5;" glyph-name="otilde" horiz-adv-x="671" d="M437 541T489 507T571 413T601 283Q601 206 554 139T437 31T300 -10Q234 -10 182 24T100 118T70 248Q70 325 117 392T234 500T371 541Q437 541 489 507ZM200 457T200 296Q200 201 241 138T358
74Q471 74 471 236Q471 330 430 393T313 457Q200 457 200 296ZM357 807T422 807Q454 807 484 829L518 855L548 817L387 690Q314 765 250 765Q216 765 185 742L153 718L123 756L284 883Q357 807 422 807Z" />
<glyph unicode="&#xf6;" glyph-name="odieresis" horiz-adv-x="671" d="M237 846T254 825T272 773Q272 751 260 732T228 702T191 690Q164 690 147 711T129 763Q129 785 141 804T173 834T210 846Q237 846 254 825ZM507 846T524 825T542 773Q542 751 530 732T498
702T461 690Q434 690 417 711T399 763Q399 785 411 804T443 834T480 846Q507 846 524 825ZM437 541T489 507T571 413T601 283Q601 206 554 139T437 31T300 -10Q234 -10 182 24T100 118T70 248Q70 325 117 392T234 500T371 541Q437 541 489 507ZM200 457T200 296Q200
201 241 138T358 74Q471 74 471 236Q471 330 430 393T313 457Q200 457 200 296Z" />
<glyph unicode="&#xf7;" glyph-name="divide" horiz-adv-x="527" d="M40 329H487V288H40V329ZM304 198T323 176T343 121Q343 98 329 78T294 45T253 33Q223 33 204 55T184 110Q184 133 198 153T233 186T274 198Q304 198 323 176ZM304 584T323 562T343 507Q343 484
329 464T294 431T253 419Q223 419 204 441T184 496Q184 519 198 539T233 572T274 584Q304 584 323 562Z" />
<glyph unicode="&#xf8;" glyph-name="oslash" horiz-adv-x="671" d="M543 469T571 411T599 284Q599 207 552 140T435 32T298 -9Q252 -9 209 10L119 -146L83 -125L173 30Q124 64 97 121T69 248Q69 325 116 392T233 500T370 541Q419 541 459 523L549 678L585 657L496
502L494 503Q543 469 571 411ZM198 204T237 142L401 426Q363 458 311 458Q198 458 198 297V298Q198 204 237 142ZM468 75T468 237Q468 332 429 393L265 109Q303 76 356 76L355 75Q468 75 468 237Z" />
<glyph unicode="&#xf9;" glyph-name="ugrave" horiz-adv-x="699" d="M644 0H454V104L327 -2Q306 -10 272 -10Q204 -10 164 31T124 144V383L35 435V466L206 550H244V194Q244 139 261 117T322 95Q353 95 383 106T454 152V383L365 435V466L536 550H574V75L664 40L644
0ZM376 676L156 849L175 873L309 892L416 696L376 676Z" />
<glyph unicode="&#xfa;" glyph-name="uacute" horiz-adv-x="699" d="M644 0H454V104L327 -2Q306 -10 272 -10Q204 -10 164 31T124 144V383L35 435V466L206 550H244V194Q244 139 261 117T322 95Q353 95 383 106T454 152V383L365 435V466L536 550H574V75L664 40L644
0ZM555 849L335 676L295 696L402 892L536 873L555 849Z" />
<glyph unicode="&#xfb;" glyph-name="ucircumflex" horiz-adv-x="699" d="M644 0H454V104L327 -2Q306 -10 272 -10Q204 -10 164 31T124 144V383L35 435V466L206 550H244V194Q244 139 261 117T322 95Q353 95 383 106T454 152V383L365 435V466L536 550H574V75L664
40L644 0ZM560 680L436 661L319 795L161 670L131 708L352 883L579 704L560 680Z" />
<glyph unicode="&#xfc;" glyph-name="udieresis" horiz-adv-x="699" d="M183 690T166 711T148 763Q148 785 160 804T192 834T229 846Q256 846 273 825T291 773Q291 751 279 732T247 702T210 690Q183 690 166 711ZM453 690T436 711T418 763Q418 785 430 804T462
834T499 846Q526 846 543 825T561 773Q561 751 549 732T517 702T480 690Q453 690 436 711ZM644 0H454V104L327 -2Q306 -10 272 -10Q204 -10 164 31T124 144V383L35 435V466L206 550H244V194Q244 139 261 117T322 95Q353 95 383 106T454 152V383L365 435V466L536
550H574V75L664 40L644 0Z" />
<glyph unicode="&#xfd;" glyph-name="yacute" horiz-adv-x="620" d="M583 500L330 0L122 -264L84 -234Q141 -173 170 -127T212 -35T224 76L98 381L5 435V466L176 550L214 399L336 101L477 394L344 491L364 531H583V500ZM500 849L280 676L240 696L347 892L481 873L500
849Z" />
<glyph unicode="&#xfe;" glyph-name="thorn" horiz-adv-x="714" d="M289 -9T244 22V-171L384 -214L364 -254H35V-223L124 -153V716L35 778V809L206 873H244V428L377 533Q409 541 454 541Q508 541 551 507T619 413T644 283Q644 206 597 139T480 31T343 -10L344
-9Q289 -9 244 22ZM366 457T331 443T245 384V188Q251 138 291 107T402 75Q515 75 515 236Q515 329 486 393T404 457Q366 457 331 443Z" />
<glyph unicode="&#xff;" glyph-name="ydieresis" horiz-adv-x="620" d="M128 690T111 711T93 763Q93 785 105 804T137 834T174 846Q201 846 218 825T236 773Q236 751 224 732T192 702T155 690Q128 690 111 711ZM398 690T381 711T363 763Q363 785 375 804T407 834T444
846Q471 846 488 825T506 773Q506 751 494 732T462 702T425 690Q398 690 381 711ZM583 500L330 0L122 -264L84 -234Q141 -173 170 -127T212 -35T224 76L98 381L5 435V466L176 550L214 399L336 101L477 394L344 491L364 531H583V500Z" />
<glyph unicode="&#x2013;" glyph-name="endash" horiz-adv-x="719" d="M40 329H679V288H40V329Z" />
<glyph unicode="&#x2014;" glyph-name="emdash" horiz-adv-x="1039" d="M40 329H999V288H40V329Z" />
<glyph unicode="&#x2018;" glyph-name="quoteleft" horiz-adv-x="363" d="M262 736T240 692T214 592L292 546V515L121 431L83 582L275 826L313 796V797Q262 736 240 692Z" />
<glyph unicode="&#x2019;" glyph-name="quoteright" horiz-adv-x="370" d="M88 430L50 460Q101 521 123 565T149 665L71 711V742L242 826L280 674L88 430Z" />
<glyph unicode="&#x201a;" glyph-name="quotesinglbase" horiz-adv-x="363" d="M88 -265L50 -235Q101 -174 123 -130T149 -30L71 16V47L242 131L280 -21L88 -265Z" />
<glyph unicode="&#x201c;" glyph-name="quotedblleft" horiz-adv-x="623" d="M522 736T500 692T474 592L552 546V515L381 431L343 582L535 826L573 796V797Q522 736 500 692ZM262 736T240 692T214 592L292 546V515L121 431L83 582L275 826L313 796V797Q262 736 240 692Z" />
<glyph unicode="&#x201d;" glyph-name="quotedblright" horiz-adv-x="630" d="M348 430L310 460Q361 521 383 565T409 665L331 711V742L502 826L540 674L348 430ZM88 430L50 460Q101 521 123 565T149 665L71 711V742L242 826L280 674L88 430Z" />
<glyph unicode="&#x201e;" glyph-name="quotedblbase" horiz-adv-x="623" d="M348 -265L310 -235Q361 -174 383 -130T409 -30L331 16V47L502 131L540 -21L348 -265ZM88 -265L50 -235Q101 -174 123 -130T149 -30L71 16V47L242 131L280 -21L88 -265Z" />
<glyph unicode="&#x2022;" glyph-name="bullet" horiz-adv-x="498" d="M331 434T369 390T408 280Q408 233 380 193T310 128T228 104Q189 104 158 124T108 180T90 258Q90 305 118 345T188 410T270 434Q331 434 369 390Z" />
<glyph unicode="&#x2039;" glyph-name="guilsinglleft" horiz-adv-x="409" d="M339 51L304 26L50 267L304 508L339 483L212 288L339 51Z" />
<glyph unicode="&#x203a;" glyph-name="guilsinglright" horiz-adv-x="409" d="M105 25L70 50L197 245L70 482L105 507L359 266L105 25Z" />
</font>
</defs>
</svg>
